Резултати от 1 до 4 от общо 4

k600i-Ограничено време на видеото!

Сподели във Facebook Сподели в Google Plus Сподели в Twitter Изпрати на Email Сподели в LinkedIn
  1. cvb
    cvb е офлайн
    Member
    Тук е от
    Oct 2006
    Мнения
    281
    #1

    k600i-Ограничено време на видеото!

    Здравейте:-като го взех моя се к600 нямаше ограничение на продължителността на видео клипсега е 9 сек
    --------------------
    [Информация за файла]
    --------------------
    D:\Documents and Settings\Administrator\Desktop\MOV00001\MOV00006.3gp
    General
    Complete name : D:\Documents and Settings\Administrator\Desktop\MOV00001\MOV00006.3gp
    Format : MPEG-4
    Format profile : 3GPP Media Release 5
    Codec ID : 3gp5
    File size : 85.7 KiB
    Duration : 8s 400ms
    Overall bit rate : 83.6 Kbps
    Encoded date : UTC 2011-05-26 06:39:52
    Tagged date : UTC 2011-05-26 06:39:52
    Video #1
    ID : 1
    Format : H.263
    Format profile : BaseLine@1.0
    Codec ID : s263
    Duration : 8s 276ms
    Bit rate mode : Variable
    Bit rate : 70.0 Kbps
    Width : 176 pixels
    Height : 144 pixels
    Display aspect ratio : 1.222
    Frame rate mode : Variable
    Frame rate : 9.908 fps
    Minimum frame rate : 4.630 fps
    Maximum frame rate : 10.417 fps
    Bits/(Pixel*Frame) : 0.279
    Stream size : 70.7 KiB (83%)
    Writing library : EMP
    Language : Japanese
    Encoded date : UTC 2011-05-26 06:39:52
    Tagged date : UTC 2011-05-26 06:39:52
    Audio #2
    ID : 2
    Format : AMR
    Format/Info : Adaptive Multi-Rate
    Format profile : Narrow band
    Codec ID : samr
    Duration : 8s 400ms
    Bit rate mode : Constant
    Bit rate : 12.8 Kbps
    Channel(s) : 1 channel
    Sampling rate : 8 000 Hz
    Resolution : 16 bits
    Stream size : 13.1 KiB (15%)
    Writing library : EMP

    :mи спира записа на камерата:foto
    сега направих нулиране на настройките до заводски но не повлия

    изобщо...

    В
    Гугъл не изравям помощ...по казуса

    както и на 47-8стр нищо няма

  2.  
  3. Super Moderator Аватара на FearMe
    Тук е от
    Jan 2001
    Мнения
    15,126
    #2

    Re:k600i-Ограничено време на видеото!

    пълна ти е картата?

  4. Moderator Аватара на glowndark
    Тук е от
    Oct 2004
    Мнения
    2,421
    #3

    Re:k600i-Ограничено време на видеото!

    Не съм чувал на Сони да има ограничения на видеото. Имам няколко включително и един K510i които няма слот за карти, но си снима докато паметта се напълни...
    Виж си паметта, на картата и телефона, виж къде е настроен да записва на картата или телефона. В краен случай може да обновиш софтуера на телефона...

  5. Junior Member
    Тук е от
    Aug 2010
    Живее в
    ямбол
    Мнения
    17
    #4

    Re:k600i-Ограничено време на видеото!

    Цитат Първоначално публикувано от cvb
    Здравейте:-като го взех моя се к600 нямаше ограничение на продължителността на видео клипсега е 9 сек
    --------------------
    [Информация за файла]
    --------------------
    D:\Documents and Settings\Administrator\Desktop\MOV00001\MOV00006.3gp
    General
    Complete name : D:\Documents and Settings\Administrator\Desktop\MOV00001\MOV00006.3gp
    Format : MPEG-4
    Format profile : 3GPP Media Release 5
    Codec ID : 3gp5
    File size : 85.7 KiB
    Duration : 8s 400ms
    Overall bit rate : 83.6 Kbps
    Encoded date : UTC 2011-05-26 06:39:52
    Tagged date : UTC 2011-05-26 06:39:52
    Video #1
    ID : 1
    Format : H.263
    Format profile : BaseLine@1.0
    Codec ID : s263
    Duration : 8s 276ms
    Bit rate mode : Variable
    Bit rate : 70.0 Kbps
    Width : 176 pixels
    Height : 144 pixels
    Display aspect ratio : 1.222
    Frame rate mode : Variable
    Frame rate : 9.908 fps
    Minimum frame rate : 4.630 fps
    Maximum frame rate : 10.417 fps
    Bits/(Pixel*Frame) : 0.279
    Stream size : 70.7 KiB (83%)
    Writing library : EMP
    Language : Japanese
    Encoded date : UTC 2011-05-26 06:39:52
    Tagged date : UTC 2011-05-26 06:39:52
    Audio #2
    ID : 2
    Format : AMR
    Format/Info : Adaptive Multi-Rate
    Format profile : Narrow band
    Codec ID : samr
    Duration : 8s 400ms
    Bit rate mode : Constant
    Bit rate : 12.8 Kbps
    Channel(s) : 1 channel
    Sampling rate : 8 000 Hz
    Resolution : 16 bits
    Stream size : 13.1 KiB (15%)
    Writing library : EMP

    :mи спира записа на камерата:foto
    сега направих нулиране на настройките до заводски но не повлия

    изобщо...

    В
    Гугъл не изравям помощ...по казуса

    както и на 47-8стр нищо няма
    първо няма карта,второ избрал си от опциите високо качество на видео записа затова го ограничава

Сподели във Facebook Сподели в Google Plus Сподели в Twitter Изпрати на Email Сподели в LinkedIn

Подобни теми

  1. Отговори: 21
    Последно: 23-12-11, 16:22
  2. Монтаж на климатик в ограничено пространство
    От Zygot във форум Въпроси свързани с монтажа
    Отговори: 6
    Последно: 05-04-11, 14:42
  3. От видеото ли е?
    От kor6uma във форум Аудио и Видеокарти
    Отговори: 1
    Последно: 29-01-09, 23:46
  4. Whirlpool - от време на време отзад се чува пукане
    От shell във форум Хладилна техника
    Отговори: 4
    Последно: 30-06-07, 20:48
  5. Отговори: 30
    Последно: 11-12-06, 08:56
SetCombG.com
SetCombG.com е портален сайт и Форум за битова техника, телевизори, климатици, лаптопи и смартфони, създаден през 1999 година.
Заедно сме над 15 години!
Този форум се задвижва, благодарение на Persy Сървър
Следвай ни
Горе